Orb Composer



The Doctor managed to steer Lumpy through the warship to eventually place the Orb in the reactor core, destroying the Starbane in an. He is known as a creator of broad film farces and comedic parodies. 5 (Affiliate Link) is the most accomplished music composition Artificial. The update is pending currently and if you own Orb Composer already should be posted around Monday, October 7th, 2019. Inside Voices by (ORB), released 06 August 2015 1. 🎮💻 🅂🅄🅂🄲🅁í🄱🄴🅃🄴 🄰🅀🅄í https://bit. Orbs move around the shuttle, appearing to be in formation Rob Lowe, 20, rocks a mullet in 1985 snap from St. Order now Features System Requirements. With Orb Composer Pro, Hexachords offers the first software whose artificial intelligence helps music composers to work. The Orb is a British ambient house group founded by British musician Dr. Orb Composer Pro S von Hexachords ist eine Software, die basierend auf künstlicher Intelligenz eigenständig komplette Songs entwickelt. An Orb show encompassed the best elements of performance hall and club, with colorful light shows and visuals, and a relaxed, positive groove rarely found in electronic circles. Delicate and at the same time powerfully engaging, Aura Gaze mesmerizes the listener. Orb Soundwerx is a team of creative individuals that compose and produce epic music and sound for all media. We also cover the latest tech news and answer viewer questions about Netflix on Debian and why Linux should look like Windows. Then, it dawned on me…. com), the largest and best organized classical music site on the web. I didn't try out Orb Composer Pro, but I noticed that the chords are not being named after their grades and functions. 1607) 1541-Hendrik van Kinschot, Dutch lawyer 1599-Denzil Holles, 1st Baron Holles, English statesman and writer (d. The group popularized the genre as well, by appearing on the British chart show Top of the Pops and hitting number one in the U. 1876) 1806 - Ludwig Friedrich Hetsch, composer. Play chords from your MIDI keyboard and Orb integrates them instantly, creating notes for each Orb plugin opened in your DAW. Jonathan (alias "Johnny") is an artificial intelligence engineer and a music lover. orb-composer. exe is the full command line if you want to uninstall Orb Producer Suite version 2. Orb Producer Suite (or OPS) is a set of four fully-integrated VST3/AU/AU Midi FX plugins that use artificial intelligence to create musical ideas at the push of a button. After Cauty left in 1990, Paterson assumed lead role. De resultaten van Orb-Composer Orb-Composer zal je niet de soundtrack voor de nieuwste Star Wars-film opleveren. Attaching A Composer To Multiple Views You may attach a view composer to multiple views at once by passing an array of views as the first argument to the composer method:. 3 Horcruxes could only be created after committing murder, the supreme act of evil. The group achieved six Top 20 hits in the UK in the mid 1990s and helped popularize the Chill Out music genre. 8 High Jump Slam 6. Order-now : www. BibMe Free Bibliography & Citation Maker - MLA, APA, Chicago, Harvard. Their goal is to make the plugin ecosystem more stable as it reduces the need to mess with Composer\Composer's internal state, by providing explicit extension points for common plugin requirements. Focus on the creative part of music before diving into the notes. Gå med för att skapa kontakt Sound Designer på Orb. High quality The Orb inspired bags by independent artists and designers from around the world. Orb Composer provides a complete range of possible harmonic colors. It's designed for composers, bands, orchestrators or simply everyone who wants to create Music ! Check out our website for more. The orb seems to drain a bit of life from the owner, resulting in -3HP, while at the same time placing them more in tune to the world of magic. That’s why you need to know at least the basic rules of music composition in order to be able to use the ORB Composer properly. 5 from Hexachords. 2 Trailer 3 In-Game Teaser 4 Trivia 5 Gallery 6 Videos 7. Archie is a professional media composer. Python Blue. This edition applies to Release 6. Hexachords has developed an AI to compose music, and their CEO Richard Portelli joins us to discuss how their Orb Composer is about to take the industry by storm. one way for future composers to symbolize their music. What is ORB Composer? Orb is the name of the first Artificial Intelligence designed for music composers. SATB+organ. Anima is a music track unlocked in the Heart of Gielinor by entering the area before jumping down to the boss battle with Telos, the Warden. Samantha is an LA-based composer and pianist who contributes to films, TV shows, and video games. peermusic was founded over 90 years ago by renowned visionary Ralph S. But, more on this later. It was produced by Hijaz Mustapha of British worldbeat band 3 Mustaphas 3. Today we look at Orb Producer Suite from Hexachords. The group popularized the genre as well, by appearing on the British chart show Top of the Pops and hitting number one in the U. The Vondraxian orbs stored. You can sing, whistle or. While their other product Orb Composer is a. As a Developer Advocate, I work with web development teams on improving their workflows. Orb Producer Suite Crack. wav" WAVE INDEX 01 00:00:00 FILE "04. O thou, the central orb. Orb_4 (Near-Earth orbit) 5. Originally sold. Dear all, Hexachords will launch next April 2’ his new software Orb Composer, an Artificial Orb Composer (AI for music) Pre order offer !. It was released on June 11th, 2015 in Japan; June 16th, 2016 in the west during the E3. In OpenCV 3. Occasional Orb collaborator Youth and ambient composer Roger Eno were brought on board for contributions, and The Designers Republic took care of cover art. Inspire your inbox – Sign up for daily fun facts about this day in history, updates, and special offers. Throughout the years, I have been occasionally asked this question by adult choristers to whom I have distributed the beloved Anglican cathedral hit-anthem, "O Thou the Central Orb" by Irish composer Charles Wood (1866-1926). io version of the game is still being updated even with the platform addition. NACBA ENCOURAGED BY SENATOR ELIZABETH WARREN’S INTRODUCTION OF THE CONSUMER BANKRUPTCY REFORM ACT The National Association of Consumer Bankruptcy Attorneys (NACBA) commends Senator Elizabeth Warren and House Judiciary Chair Jerrold Nadler for their […]. Halo 4 is the first game developed by 343 Industries, the management team in. Welcome to the Mannheim School District #83, a public school district located in Franklin Park, IL. Subskrypcja Standard Developer. If your computer already has PHP and Composer installed, you may create a new Laravel project by using Composer directly. 6 Video Games 8 Known Objects 9 Gallery Element Magic The user can utilize different elements as a form. Compose with an Artificial Intelligence. He also composed the score for Lionsgate and Hulu's feature film,. Dore definition, a group of mountains in central France: highest peak, 6,188 feet (1,885 meters). Orb Composer S (sometimes referred to as Hexachords Orb Composer) was added by n41m3d in авг 2019 and the latest update was made in ноя 2020. Single by The Orb; from the album The Orb's Adventures Beyond the Ultraworld; B-side "Into the Fourth Dimension" Released: November 1990: Genre: Ambient house: Length: 4: 27 (Album version) Label: Big Life: Songwriter(s) Martin Glover, Alex Paterson, Steve Reich: Producer(s) The Orb: The Orb singles chronology. Price: Pricing plans start at $149,00 Compatibility: macOS, Windows You can’t generate music automatically with ORB Composer, because the AI creates music based on your choices. Pokémon Brick Bronze was a Roblox game created by Tbradm, Lando64000, Zombie7737, Our_Hero, Srybon, MySixthSense, Chrissuper, Kyle Allen Music, Shipool, Roball1. 0 level, Artificial Ascent. com to view more coupon codes information in orb-composer. Anima is a music track unlocked in the Heart of Gielinor by entering the area before jumping down to the boss battle with Telos, the Warden. " I took it for a spin to test that claim. Just fill it up with garden refuse, slide the door closed and turn every couple days. The software can be expensive, but free programs have been the basis of the desktop experience for decades, and today’s offers are quite powerful. TITLE "Barbie Girl (The Good, The Bad Mit Barby Orb Mix)" PERFORMER "Electric Chairs" REM COMPOSER "" INDEX 00 07:19:34 FILE "03. So I thought why not just use the original Orb from the 360 logo and. ORB Composer. Orb Arpeggios The Arpeggios you need The Arpeggio module is an instant easy-to-use module, providing cool arpeggios to give you instant satisfaction, with tons of parameters for the advanced users searching for a complex arpeggio system. 2 Alone to Peliad and new young member 1. He followed the footsteps of the Peerless Thief. Control4 ® Composer Home Edition (HE) is powerful software that lets you customize your Control4 system. Alex Paterson and KLF member Jimmy Cauty. ly/2RWT0nX 🎮💻🔥📝ᴍɪ ʙʟᴏɢ ᴘᴇʀ🆂ᴏɴᴀʟ https://bit. Gai now uses a technological device known as the Orb Ring and a deck of Ultra Fusion Cards to be able to borrow and combine the powers of two prior Ultramen to continue his battle. It will help you to get inspired and create ideas and songs faster than any other software solution on the market. The Torment of Hades plotline begins by throwing the player directly into the Cerberus boss fight, so get ready to hit the ground running. Having influenced a number of artists extending across a variety of music genres including Jay Z, the Orb and Muse, Morricone’s extensive body of work in both the film and music industry has solidified his position as a virtuoso, influential and legendary composer. Orb Producer Suite 2. 1 VSTi [2018]. She works in the music department for all kinds of projects, including ‘The Secret Life Of Pets 2,’ ‘Star Wars IX,’ ‘Family Guy,’ and ‘American Dad. 04/20/2017; 2 minutes to read; D; D; In this article. The composers selected are Brahms, Debussy, Puccini, Ravel, Satie, Schubert, Schumann and Stravinsky – chosen because the accuracy of their birth times is rated AA by Astrodatabank. Hexachords Orb Composer Pro S 1. Yes, It is an Offline Installer / Full Standalone Setup. Orb Composer provides a complete range of possible harmonic colors. MV behind. 89MB: 04:45: 20. Check out A Star Is Born Soundtrack [Explicit] by Lady Gaga & Bradley Cooper on Amazon Music. This Artificial Intelligence Software includes modules that help in various operations, such as, playing for missing instruments, generating accurate music design, selecting different parameters i. The Orb Composer by Hexachords professes to be "the most accomplished music composition Artificial Intelligence in the world. Personally, I love milking Reason's ecosystem for generative tools and ideas (they call their MIDI effects "players"). Shoo definition is - —used especially in driving away an unwanted animal. Nobuo Uematsu has become one of the most famous music composer in the video game industry largely due to his emotionally-moving scores for many titles in the popular Final Fantasy series from Square-Enix. Orb Composer Pro S von Hexachords ist eine Software, die basierend auf künstlicher Intelligenz eigenständig komplette Songs entwickelt. Occasional Orb collaborator Youth and ambient composer Roger Eno were brought on board for contributions, and The Designers Republic took care of cover art. This Artificial Intelligence Software includes modules that help in various operations, such as, playing for missing instruments, generating accurate music design, selecting different parameters i. The longest continuously producing Yiddish theatre company in the world. Discover all The Orb's music connections, watch videos, listen to music, discuss and download. Save $30 now!. 5 demos, I get the impression that Orb Composer creates usable melodies and harmonies that meet or exceed what you can get from most other music software. 1 VSTi [2018]. What is ORB Composer? Orb is the name of the first Artificial Intelligence designed for music composers. Coronation Te Deum (arr. Orb Composer is a creative tool which you can model very precisely to assist you during your music composition work sessions. Eldritch definition is - strange or unnatural especially in a way that inspires fear : weird, eerie. I even tried multiple instances of the orb effect on one solid, that definitely doesn't work. He also composed the score for Lionsgate and Hulu's feature film,. William Dunbar gets the credit for the title to this work. Stephen Gorbos – Composer - All performance materials for music featured on this site are available for purchase. This ambient pop. Presentation of the Swedish composer Rolf Enström and his work. He is a musician, composer, producer, and an acclaimed video artist. Orb_2 (Green light) 3. 2 Partner Skills 2. With Highend, you are getting it for FREE. , arranging instruments, giving unique ideas and much more. The alternate version of the song was performed by Ichiro Mizuki with voyager, Featuring May J. We also cover the latest tech news and answer viewer questions about Netflix on Debian and why Linux should look like Windows. So in A Major I, II, and III are being called A, Bm, and C#m. Release Notes For EPF Composer 1. If that doesn't suit you, our users have ranked 45 alternatives to Orb Composer S so hopefully you can find a suitable replacement. Hexachords | 166 followers on LinkedIn. Hexachords Orb Composer S - Pro v1. orb-composer. Give your footage authentic retro and modern day looks. Experienced property consultants and chartered surveyors. Orb Composer is the latest Artificial Intelligence technology for music. 9 Berserk Combo 6. Order-now : www. Support for Adobe Flash Player ends December 31, 2020; any saved game progress will be lost at that time. Orb Composer is a creative tool which you can model very precisely to assist you during your music composition work Orb is the name of the first Artificial Intelligence designed for music composers. 5 million sounds w/ Loopcloud Free Trial. Ophir Kutiel better known as Kutiman is a multi-talented artist from Tel Aviv. com is tracked by us since February, 2018. orb, Jan 16, 2016 #35. The new program will consist of two works: Ocho by Artistic Director, Rafael Bonachela and composer Nick Wales, together with Full Moon by Cheng Tsung-Lung who is Director of the Cloud Gate Company of Taiwan. 1898 - Avery Claflin, composer 1915 - Alan Hewitt, American actor (Det Brennan-My Favorite Martian), born in NYC, New York (d. Write Music in an Intuitive Way with Orb Composer is an independent application that works with all the significant DAWs and can use. The orb seems to drain a bit of life from the owner, resulting in -3HP, while at the same time placing them more in tune to the world of magic. ly/2KN3TZP Access 3. 1 download online full. 1778) 1724 - Ignaz Franz Xaver Kurzinger, composer 1752 - Joseph Matthias Kracher, composer 1754 - John Lansing, Jr. Halo 4 is the seventh installment in the Halo franchise. orb-composer. About Orb Composer. Composer HE 2. Un symbole Midi doit apparaître en haut à droite. Orb Composer is the latest Artificial Intelligence technology for music. The latest update to Orb Composer comes with a lot of new features. Composer File size Length Orb Coins Fahren-Height: The normal volcano music for Miner Disturbance. This Artificial Intelligence Software includes modules that help in various operations, such as, playing for missing instruments, generating accurate music design, selecting different parameters i. 7 4 Achievements 5 Story 6 Personality 7 Tips. Orbs move around the shuttle, appearing to be in formation Rob Lowe, 20, rocks a mullet in 1985 snap from St. 1 Details 2 Stats 3 Skills 4 Quotes 5 Awakening Information 6 Rebirth Information 7 Card Icons 0 Max Level: 90 0 Cost: 174 0 Attack: 27999 / 49999 0 Defense: 25999 / 49999 0 Soldiers: 35000 / 49999 1★. The orb seems to drain a bit of life from the owner, resulting in -3HP, while at the same time placing them more in tune to the world of magic. Music: CHARLES WOOD. ly/2OISJHa Hola amigos que tal e. Throughout the years, I have been occasionally asked this question by adult choristers to whom I have distributed the beloved Anglican cathedral hit-anthem, "O Thou the Central Orb" by Irish composer Charles Wood (1866-1926). Make greeting cards at home, learn typing, do a newsletter, create a scrapbook, start a business, get clip art or fix your computer, we have the right software for you. From watching the new Orb Composer 1. It was produced by Hijaz Mustapha of British worldbeat band 3 Mustaphas 3. Auto Start doit être sélectionné par défaut. com Orb Composer is an Artificial Intelligence software for Music. This site requires javascript in order to display properly. What is ORB Composer? Orb is the name of the first Artificial Intelligence designed for music composers. About ORB COMPOSER. Jonathan (alias "Johnny") is an artificial intelligence engineer and a music lover. The latest update to Orb Composer comes with a lot of new features. Which are the Best Piano VST Plugins or Sample Libraries for you? Let me share my top recommendations. It adds structural integrity. of episodes: 25: Production; Running time: 24–25 min. com/takethat Twitter: https://twitter. 5 from Hexachords. Last Updated 01/26/2021 10:20 PM EST. Update: All elements fully compatible with Visual Composer 4. Another fantastically royal piece from William Walton, which received its premiere at the coronation. The Orb is a must-hear creative processor for any electronic music producer. This was. The group popularized the genre as well, by appearing on the British chart show Top of the Pops and hitting number one in the U. This guide and walkthrough will show you. In this example, the cache key will be based on a checksum of the composer. Free PowerPoint background music download. His works have been performed by the. Attention : Orb Composer Midi est nécessaire pour qu’Orb Composer fonctionne. In Q2 will the upgrade from Orb Composer Pro S 1. Eldritch definition is - strange or unnatural especially in a way that inspires fear : weird, eerie. Orb Composer is a trusted AI software for the musician that puts every musical idea into the practice that lets you bring efficient results. An Orb show encompassed the best elements of performance hall and club, with colorful light shows and visuals, and a relaxed, positive groove rarely found in electronic circles. Played around with the demo today and had some fun. Orb Producer affiliate program is now active ! We are now offering a partnership program allowing you to earn commissions for sales made on our site www. Our dedicated teams work across the full spectrum of real estate services, advising investors, occupiers and developers. We Can is the second mini album by Weeekly. 1 "It Could've Been Great" 1. 4, Orb-Composer S is completely Standalone, hence the ”S”. William Dunbar gets the credit for the title to this work. Cerulean Orb from Sceneries and Forms A stunning ambient experimental album from Swedish composer Dag Rosenqvist, available as a limited-edition CD. I picked one of those features: Chord Split - yes, Chord Splitting! Orb Composer can now have more than one chord per bar. Thus, only. Players can walk over them to obtain the "Replication" debuff that lasts 45 seconds. (ミスター) コンプレス, Misutā Konpuresu?), is a villain affiliated with the League of Villains and was a member of the organization's Vanguard Action Squad. audio visual installations, art and architecture, quartz composer plugins MAD_Orb setup Posted in event / project , MadMapper , MAD_Orb on July 3, 2013 by Francois Wunschel. 1 Short Arm Slam 6. The links are provided solely by this site's users for informational and educational purposes. 3 Antagonists 3. Un symbole Midi doit apparaître en haut à droite. Which one will accompany a given melody in a more musical way? Will they find good chords for harmonizatio. Orb Composer is the first software with artificial intelligence designed for music composers. 0,qode-theme-bridge,wpb-js-composer js-comp-ver-5. Archie is a professional media composer. Hexachord - Orb Composer Pro v1. After Cauty left in 1990, Paterson assumed lead role. Observation Orbs are devices that the Diamonds use to watch activity on their colonies from afar. The latest update to Orb Composer comes with a lot of new features. Orb Composer features help you get from musical ideas a complete composition. Today we look at Orb Producer Suite from Hexachords. Bridge Aria Tangent Prism Orb Dome Arc Aperture Bastion Tri Cone Voyager Concentric Alabaster Archipelago Atelier Beacon Crux Court Rein Composer Molten Contour Bell A-Frame T + X Well Bright Side MQuan. 4 First puzzle and finding the new special 1. Apparitions of Red Earth is our final offering and last breathe as a band-- a reflection of the forests that nurtured our spirits and revealed to us the roots of all things living. 5 Long Arm Sweep 6. Find many great new & used options and get the best deals for Hexachords Orb Composer S Pro VSTi 2019 at the best online prices at eBay! Free shipping for many products!. YOU are the artist!. 5 million sounds w/ Loopcloud Free. AppData is a folder in your Windows user account home folder, and Roaming is a folder within that. Discontinued. What is ORB Composer? Orb is the name of the first Artificial Intelligence designed for music composers. 5 from Hexachords. After Cauty left in 1990, Paterson assumed lead role. ly/2KN3TZP Access 3. 0 Getting Started Guide Introduction. # bin/composer % display [email protected] Email: [email protected] Orb is the name of one of the most comprehensive Artificial Intelligence tracks in the world. php php -r "unlink('composer-setup. More than 5 years of research and development were necessary to create this smart tool for composers, bands, orchestrators, to help them experiment new musical ideas and enhance their creativity. Make greeting cards at home, learn typing, do a newsletter, create a scrapbook, start a business, get clip art or fix your computer, we have the right software for you. Control4 ® Composer Home Edition (HE) is powerful software that lets you customize your Control4 system. Male voices, Rythm composer Drum Machine (Roland tr-626), Electric guitar (Fender/Stratocaster), Psr-16 Yamaha, Fujitone 3 Electronic Keyboard, Diatonic Accordion Hohner, Toy-piano, Acoustic Drums & Low tone Generator. 3 Thais' coup and Gyendal's ecaption 1. Brooks began his career as a comic and a writer for the early TV variety show Your Show of Shows. Ian Taylor: 3. Welcome to the Mannheim School District #83, a public school district located in Franklin Park, IL. We also cover the latest tech news and answer viewer questions about Netflix on Debian and why Linux should look like Windows. 1 download online full. Life Orb: At the end of the eastern path in the deeper part of the forest, across the water Sw Sh Misty Seed: At the western branch of the eastern path in the deeper part of the forest Sw Sh Mental Herb: On the very western path in the deeper part of the forest Sw Sh Elixir. ly/2KN3TZP Access 3. If you're on a New Game + file, you can access the DLC after obtaining the map. Language: English Instruments: Organ. While their other product Orb Composer is a standalone program for Ai. Orb and Sceptre. It is the 30th entry to the Ultra Series overall and the last entry to the series released in the Heisei era. Jonathan (alias "Johnny") is an artificial intelligence engineer and a music lover. This is done by focusing on a good structure, while the orb tries to create a basis with the decisions made by the user regarding the mood/emotion of the track, on which in turn one's own knowledge and experience can be built. Multimedia tools downloads - NoteWorthy Composer by NoteWorthy Software, Inc. Today we look at Orb Producer Suite from Hexachords. What is ORB Composer? Orb is the name of the first Artificial Intelligence designed for music composers. Created by Gianni aka Cesare Barbetta who also runs "Boxes of Toys" blog. MIDI Port Driver. The album’s 10 tracks were intended to stand as a collective whole and not individually, though they certainly can and do. Orb-composer. Discontinued. 1 download online full. Modo label. Artistic occupations involve working with forms, designs and patterns. Hexachords – Orb Composer VST [Latest] Free Download. 75MB: 01:32: 20 Miner Details: The main theme music for Miner Disturbance. Ultraman Orb (ウルトラマンオーブ, Urutoraman Ōbu) is a Japanese tokusatsu television series produced by Tsuburaya Productions and broadcast on TV Tokyo. Hexachords Orb Composer S Pro v1. Orb found Boiled in Lead exploring a wider range of traditional music styles than ever before, moving beyond the confines of the Fairport Convention-influenced Celtic rock of previous albums and adding material from Albania, Romania, Macedonia. Overview Gallery Synopsis Relationships Atsuhiro Sako in Final Performance Atsuhiro Sako (迫 (さこ) 圧 (あつ) 紘 (ひろ) , Sako Atsuhiro?), also known as Mr. Anyone here familiar with this program? It's been out a while, I've watched several videos, and it does look pretty cool--but I'm not finding many reviews or discussions about it. Compose with an Artificial Intelligence. A plugin is much easier and straightforward to use and require less setup to get you going. 5 Anime/Manga 7. orb-composer. Create new music styles - Create your own music styles and experiment with exotic instruments mixes, chord progressions, time signatures and accurate instruments clip settings. Find the best replacement by comparing reviews, pricing & free trial. You Are The Artist!. Mantroskylo Myo0 Hydra: F-777 Insane 9 425 11 5. I usually center my answers on a suite of Pantheon tools meant to combine an external git host (like Github or Bitbucket) with a Composer-based repo structure, and a CI platform (like CircleCI) push a build artifact to Pantheon. Influence Orb Jan 2020 - Present 1 year 1 month. com Young eyes examine the reptilian orange surface, pockmarked with deeper shaded wells of zest, an alien orb, a small exotic…. (I Heard You) Say My Name 6. As with any content generated by software, one must manipulate the generated content to make it his/her own and to give it some genuine human expression. He followed the footsteps of the Peerless Thief. Primary Sources--Literature, chronicles, other texts. Give your footage authentic retro and modern day looks. Orb Arpeggios The Arpeggios you need The Arpeggio module is an instant easy-to-use module, providing cool arpeggios to give you instant satisfaction, with tons of parameters for the advanced users searching for a complex arpeggio system. The detailed selection of features makes Orb the best tool for writing music:. Use the restore_cache step to restore cached files or directories. Order now Features System Requirements. I am definitely more composer oriented than EDM. Scaler is an inspirational and powerful music theory workstation that gives you access to a world of new ideas, expressions and melodies. More than 5 years of research and development have been needed to create this intelligent tool for composers and orchestrators to help them improve their creativity and productivity. A review of Orb Composer Pro S 1. Yes, It is an Offline Installer / Full Standalone Setup. 安積 伸 / Shin Azumi プロダクトデザイナー 1965 年 神戸生まれ。1989 年 京都市立芸術大学卒業。1994年 英国王立美術大学修士課程修了。. Orbán studied then taught at the Cluj-Napoca Academy. Orb-composer. Attaching A Composer To Multiple Views You may attach a view composer to multiple views at once by passing an array of views as the first argument to the composer method:. Played around with the demo today and had some fun. The Torment of Hades plotline begins by throwing the player directly into the Cerberus boss fight, so get ready to hit the ground running. While their other product Orb Composer is a. Language: English Instruments: Organ. G, [the label] turned a blind eye to my other. With Orb Composer Pro, Hexachords offers the first software whose artificial intelligence helps music composers to work. Orb Composer is a new artificial intelligence software application that can create mock ups of new chord progressions and melodies by learning from a series of user inputs. She works in the music department for all kinds of projects, including ‘The Secret Life Of Pets 2,’ ‘Star Wars IX,’ ‘Family Guy,’ and ‘American Dad. byClive PagetonMay 2, 2017. Akame, also known as Akame of the Demon Sword Murasame, is the titular heroine, alongside Tatsumi, and lead anti-heroine of the manga seriesAkame ga Kill!, as well as the main protagonist of the prequel mangaAkame ga Kill! Zero. 1 Screenshots 1. Hexachords Orb Composer S - Pro v1. With a musical background, we know that aesthetics and emotion always comes first. phar install Loading composer repositories with package information Installing dependencies (including require-dev) Your requirements could not be resolved. What is ORB Composer? Orb is the name of the first Artificial Intelligence designed for music composers. That’s why you need to know at least the basic rules of music composition in order to be able to use the ORB Composer properly. (Very DAW-like) Previous versions worked within your DAW. Hexachords developers unveiled Orb Composer software, which they themselves call the first As conceived by the creators, Orb Composer will help musicians in the creative process and facilitate. 5 demos, I get the impression that Orb Composer creates usable melodies and harmonies that meet or exceed what you can get from most other music software. Third-Party Technology: Certain Maximo products contain technology provided under license from third. Unholy Smoke 7. Rejoice ! The Orb have a brand spanking new album out soon. Orb Composer (Affiliate Link) is an excellent tool to create a song or score from zero. Conception and Original Directed and Choreographed by Michael Bennett. The Sub is the ultimate solution for sub-bass, built to help you spend less time tweaking and more time creating music. This Windows-based program that has an intuitive drag-and-drop interface that lets you view and configure your devices, manage your media, and. Orb Soundwerx creates custom music and sound for games. Orb producer suite crack Orb producer suite crack. Escape will cancel and close the window. As with any content generated by software, one must manipulate the generated content to make it his/her own and to give it some genuine human expression. , American statesman (d. Attaching A Composer To Multiple Views You may attach a view composer to multiple views at once by passing an array of views as the first argument to the composer method:. ULTRAMAN ORB: THE ORIGIN SAGA is a spin off and prequel to the ULTRAMAN ORB (ウルトラマンオーブ, Urutoraman Oobu, 2016) television series, detailing the early days of hero Gai Kurenai (Hideo Ishiguro) and his arch-enemy, Juggrus Juggler (Takaya Aoyagi), when they were friends and allies fighting together in their first mission against. What is ORB Composer? Orb is the name of the first Artificial Intelligence designed for music composers. Hexachords developers unveiled Orb Composer software, which they themselves call the first artificial intelligence for composers. Hexachords | 166 followers on LinkedIn. Records, and as Youth and Jimmy were then published by E. Synapse Audio The Legend v1. Rhythm Heaven Megamix(リズム天国 ザ・ベストプラス,Rhythm Tengoku: The Best Plus?), also known as Rhythm Paradise Megamix in Europe, and Rhythm World: The Best Plus(리듬 세상 더 베스트 플러스,Lideum Sesang Deo Beseuteu Peulleoseu?) in Korea, is the 4th game in the Rhythm Heaven Series. Orb Composer is the first Artificial Intelligence designed for music composers, with more than five years of research and development to bring it to life, according to Hexachords. Orb Composer S is a standalone software that enables you to have a much less intrusive and complicated workflow. com coupons is to subscribe to mailbox and become a member at orb-composer. With Highend, you are getting it for FREE. Borrowdale scores Netflix's Original Series, LOCKE & KEY, produced by Carlton Cuse and Meredith Averill, which is currently in production for its second season. You can start in any Silverlight 2 project, for the sake of simplicity I started an empty project. Dragon Ball Z Dokkan Battle Wiki is a comprehensive database about Dragon Ball Z: Dokkan Battle, the free-to-play mobile game based on the Dragon Ball franchise. Ponad 5 lat badań i rozwoju było niezbędne do stworzenia tego. The game is known for its sublime electronic music done in REAPER and atmospheres in. Orb Producer affiliate program is now active ! We are now offering a partnership program allowing you to earn commissions for sales made on our site www. It can sync up with any DAW by transferring MIDI data to and from Orb Composer to your VST’s. Doch entgegen der Vermutung, dass der Mensch nun. Anima is a music track unlocked in the Heart of Gielinor by entering the area before jumping down to the boss battle with Telos, the Warden. Cybernetic Crescent is a 2. The album’s 10 tracks were intended to stand as a collective whole and not individually, though they certainly can and do. It is designed for composers, bands, orchestrators or simply everyone fond of music. In The Legend of Zelda: Breath of the Wild, the Great Fairies of Hyrule still exist, though not many have ever seen one, and their locations have faded into legends told by travelers. ANTIQUES ROADSHOW is part adventure, part history lesson, and part treasure hunt! Watch as specialists from the country's leading auction houses and independent dealers offer free appraisals of. As conceived by the creators, Orb Composer will help musicians in the creative process and facilitate the writing of new compositions and arrangements. 6 Video Games 8 Known Objects 9 Gallery Element Magic The user can utilize different elements as a form. Chord Composer is another powerful chord generator. to find new ideas, to inspire and to promote creativity. In ancient Dragonia existed five orbs that could be used to make dragons do one's bidding. The ability to use the elemental forces through magic. The main task of artificial intelligence is to create drafts and demos of songs. peermusic was founded over 90 years ago by renowned visionary Ralph S. Orbán studied then taught at the Cluj-Napoca Academy. com to view more coupon codes information in orb-composer. Dore definition, a group of mountains in central France: highest peak, 6,188 feet (1,885 meters). This is done by splitting bars into smaller units. YOU are the artist!. Hexachords notes that Orb Composer does not replace the composer and does not write music for a person. If you have questions on this installation part, please. The Application is there to help and allows you to decide how involved the software gets when doing the job for you. Instead of typical soundtrack-style composers, who combine a Hans-Zimmer orchestra with electric guitars, industrial synths and the like, Python Blue is dedicated to the synth-pop sound of the past. Records, and as Youth and Jimmy were then published by E. Today in History and Famous Birthdays. Subskrypcja Standard Developer. It is the 30th entry to the Ultra Series overall and the last entry to the series released in the Heisei era. RapidComposer is a unique, non-destructive, phrase-based music prototyping software designed for composers, song-writers and musicians of all musical styles (for Windows and macOS). It is always positive to focus on the music structure at a high level before diving straight into the notes. Create new music styles Create your own music styles and experiment with exotic instruments mixes, chord progressions, time signatures and accurate instruments clip settings. The package offers various options for the development of the compositions such as Arrangement, Chord Sequences, Instrument Parts, and more. Let’s make the cable connections to continue this Orb Composer template setup in Logic Pro X. It has a tempo of 130, and is in the key of D Minor. [~/public_html/flarum]# php composer. Is a composer’s process ever completely explainable? There might be a code at work, but how deep does that code go, and could anyone ever actually crack that code? Does it even matter that the logic of the piece is perceived while experiencing it, and why might a listener privilege objective truth in considering music?. Due to the early work in this style, The Orb became pioneers of the early-90's-born "ambient house" genre. How to use shoo in a sentence. 5 from Hexachords. Created by Gianni aka Cesare Barbetta who also runs "Boxes of Toys" blog. The alternate version of the song was performed by Ichiro Mizuki with voyager, Featuring May J. 0 CE (Win32/64; AAX*, VST, VSTi). 1 Intro Cutscene 2. He has been featured composer at Luton and Bromsgrove music clubs. ini settings, warn you. Just fill it up with garden refuse, slide the door closed and turn every couple days. The magical orb from the City Square (no pun intended) was stolen and the main protagonist must get it back!. The Department Defence Orbs were used by the Department to guard detention facilities such as Dauntless Prison. A Horcrux was an object in which a Dark wizard or witch has hidden a fragment of his or her soul in order to become immortal. The software can be expensive, but free programs have been the basis of the desktop experience for decades, and today’s offers are quite powerful. Amper is an AI music composition company that develops tools for content creators of all kinds. at Sheet Music Plus. 3 Horcruxes could only be created after committing murder, the supreme act of evil. Слушать или скачать онлайн песню Always Too Late музыканта Phantom Horse. As a Developer Advocate, I work with web development teams on improving their workflows. Stephen Gorbos – Composer - All performance materials for music featured on this site are available for purchase. Find the best replacement by comparing reviews, pricing & free trial. Chained Orbs, Rock Orbs and more all new challenges; An arsenal of 18 potent powerups to choose from; Immersive soundtrack by award-winning composer Jonathan Geer; Full game includes 108 challenging levels, Survival mode and two additional difficulty settings. He also composed the score for Lionsgate and Hulu's feature film,. I am definitely more composer oriented than EDM. (per episode) Release; Original network: TV Tokyo: Original release: July 9 – December 24, 2016 () Chronology; Preceded by: Ultraman X: Followed by: Ultraman Zero: The Chronicle: Related shows: Ultraman Orb: The Origin Saga: External links; Website. The "BEAT" serie is focused on new artists or new recordings, mainly in electronic style. What is ORB Composer? Orb is the name of the first Artificial Intelligence designed for music composers. Hexachords has developed an AI to compose music, and their CEO Richard Portelli joins us to discuss how their Orb Composer is about to take the industry by storm. Events and birthdays for each day of the year. Order-now : www. Orb-Composer, as mentioned above is very intuitive and has the most modern interface of the lot. 5 getting started english. Another fantastically royal piece from William Walton, which received its premiere at the coronation. The magical orb from the City Square (no pun intended) was stolen and the main protagonist must get it back!. Use the restore_cache step to restore cached files or directories. wav" WAVE INDEX 01 00:00:00 TRACK 08 AUDIO TITLE "Steel Horse" PERFORMER. Third-Party Technology: Certain Maximo products contain technology provided under license from third. While the previous product Orb Composer is a standalone program, the Orb Producer Suite is a set of 4 vst3/au plugins which works in your favourite DAW. 4 Uppercut 6. , a Vancouver music production company; Member of. You can quickly filter today's Orb Audio promo codes in order to find exclusive or verified offers. Looking for something to watch? Choose an adventure below and discover your next favorite movie or TV show. In an attempt to limit the inconsistency and complexity characterizing contemporary notation. com and enjoy your savings of January, 2021 now!. [arranger]; Forbstein, Louis [composer]; Kendel, Verdi [lyricist] (Kansas City : J. This ambient pop. 4 Live Television 7. He has been featured composer at Luton and Bromsgrove music clubs. A talented composer of classical music (symphony, ballet, chamber ensemble), jazz, and popular songs, Konstantin Orbelian is one of the brightest phenomena of Soviet and post-Soviet musical culture. Other interesting Orb Composer S alternatives are Ardour (Freemium, Open Source), TuxGuitar (Free, Open Source), AudioTool (Free) and Cakewalk (Free). io version of the game is still being updated even with the platform addition. Another fantastically royal piece from William Walton, which received its premiere at the coronation. If your computer already has PHP and Composer installed, you may create a new Laravel project by using Composer directly. Speakman Icon S-2252-PN-E2 Low Flow Shower Head. The Orb - Samples, Covers and Remixes on WhoSampled. Coupert will provide special discounts for certain products during December, customers can save some money according to their actual situation. Plateforme Devis travaux isolation a 1 euro La Tour Sur Orb (34260) prenez Rendez-vous avec un professionnel proche de chez vous au Tél: 09. Canadian composer Jaap Nico Hamburger presents his first recording with Leaf Music. John Tavener (1944-2013) Unusually for a 20th century composer, Tavener's music drew extensively on religious themes - and not of the Anglican sort. 4 CE (Win64). Thanks for watching! // Gelhein. The Doctor managed to steer Lumpy through the warship to eventually place the Orb in the reactor core, destroying the Starbane in an. This man of arts and letters, who was known as the ‘Rhymer of Scotland’, was a friend of Robert Blackadder, the beautifully named Archbishop of Glasgow. Music: CHARLES WOOD. In an attempt to limit the inconsistency and complexity characterizing contemporary notation. The Green Orbs celebrate silly situations through song in the hopes that kids of all ages will laugh and sing along! www. Famous deaths in 1956. Language: English Instruments: Organ. Presentation of the Swedish composer Rolf Enström and his work. ORB COMPOSER S –GUIDE DE DEMARRAGE 1. one way for future composers to symbolize their music. =) Hello, Mike here, and I am a composer. Paddy's Day. 9 Berserk Combo 6. orb-composer. Looking for something to watch? Choose an adventure below and discover your next favorite movie or TV show. 5 from Hexachords. The adapter driver provides a corresponding MIDI miniport driver that binds to the MIDI port driver object to form a MIDI filter (see MIDI and DirectMusic Filters) that can capture or render a MIDI stream. Composer Henry Krieger. With Orb Composer Artist, Hexachords offers the first software whose artificial intelligence helps music composers to work. A complete list of Stephen King's Movies. The light would begin glowing brighter with rays shooting out past the photos and growing until it swallows the photos, like a supernova. We have also added a cool reverb, delay, and a powerful crunchy drive. 6 Highlight Intros 3. He came to tea and very sweetly brought a little bouquet of orchids. The software can be expensive, but free programs have been the basis of the desktop experience for decades, and today’s offers are quite powerful. Stream ad-free or purchase CD's and MP3s now on Amazon. Halo 4 is the seventh installment in the Halo franchise. Watch me try this feature in my latest screencast: Orb Composer - Testing Chord Split. It is the 30th entry to the Ultra Series overall and the last entry to the series released in the Heisei era. Order-now : www. Order now Features System Requirements. Yes, It is an Offline Installer / Full Standalone Setup. wav" WAVE INDEX 01 00:00:00 FILE "04. Replication Orbs: Glowing orbs that drop from defeated clones. Introduction. Python Blue. 47 MB (2594657 bytes) on disk. ULTRAMAN ORB: THE ORIGIN SAGA is a spin off and prequel to the ULTRAMAN ORB (ウルトラマンオーブ, Urutoraman Oobu, 2016) television series, detailing the early days of hero Gai Kurenai (Hideo Ishiguro) and his arch-enemy, Juggrus Juggler (Takaya Aoyagi), when they were friends and allies fighting together in their first mission against. Object created for Vocal Vibrations, a interactive experience at Le Laboratoire, Paris. Скачать Orb Composer: orb-composer. Hexachords develops an Artificial Intelligence for Music Composers. What is ORB Composer? Orb is the name of the first Artificial Intelligence designed for music composers. In The Legend of Zelda: Breath of the Wild, the Great Fairies of Hyrule still exist, though not many have ever seen one, and their locations have faded into legends told by travelers. Acknowledgements. This is done by splitting bars into smaller units. Another observation orb is shown in the episode "Jungle Moon". 47 MB (2594657 bytes) on disk. 🎮💻 🅂🅄🅂🄲🅁í🄱🄴🅃🄴 🄰🅀🅄í https://bit. The piano is my absolute favorite instrument as a composer. Finding a unique way to review/test students about composers can be daunting! I wanted to design something that would engage kids while they review my CSI Composers series. Orb found Boiled in Lead exploring a wider range of traditional music styles than ever before, moving beyond the confines of the Fairport Convention-influenced Celtic rock of previous albums and adding material from Albania, Romania, Macedonia. 2 Alone to Peliad and new young member 1. Ai Music Composer Github. 9 Berserk Combo 6. Six-string chords are a series of six-tones, as shown in the scale or pitch line. As conceived by the creators, Orb Composer will help musicians in the creative process and facilitate the writing of new compositions and arrangements. ORB Encyclopedia--Original Essays "Medieval German Women Writers (1100-1450)", by Rebecca L. orb-composer. Learn about 205 historical figures, notable people and celebrities who died in 1956 like Hiram Bingham, Elpidio Quirino and A. 1986) 1918 - Chichay [Amparo Robles Custodio], Filipino comedienne and actress (Bilangguang puso, Ngitngit ng pitong whistle bomb), born in Tondo, Manila (d. How to use eldritch in a sentence. Video Copilot has released an awesome free After Effects plugin for creating energy and light beams. Focus on the creative part of music before diving into the notes. The latest update to Orb Composer comes with a lot of new features. It will help you to get inspired and create ideas and songs faster than any other software solution on the market. Records, and as Youth and Jimmy were then published by E. You can modify this as much as you want, to have the most perfect music composition you were thinking of. This guide and walkthrough will show you. Orb Arpeggios The Arpeggios you need The Arpeggio module is an instant easy-to-use module, providing cool arpeggios to give you instant satisfaction, with tons of parameters for the advanced users searching for a complex arpeggio system. Eventually, Fujimiya regained his faith in humanity and fought. Due to the early work in this style, The Orb became pioneers of the early-90's-born "ambient house" genre. Czym jest ORB Composer? Orb to nazwa pierwszej sztucznej inteligencji przeznaczonej dla kompozytorów muzycznych. What is ORB Composer? Orb is the name of the first Artificial Intelligence designed for music composers. 2 Trailer 3 In-Game Teaser 4 Trivia 5 Gallery 6 Videos 7. 0 level, Artificial Ascent. Hexachords develops an Artificial Intelligence for Music Composers. If you're on a New Game + file, you can access the DLC after obtaining the map. In this example, the cache key will be based on a checksum of the composer. json schema Repositories Config Runtime Composer utilities Community Articles. Eldritch definition, eerie; weird; spooky. Elmo's Fire composer David Foster Teen idol famously mimed playing the saxophone. Jaap Nico Hamburger is a Canadian Music Centre Associate Composer; President and CEO, Orange Music Inc. This composition tool features a customizable progression builder, visual chord charts, MIDI editing, MIDI sequencing, rhythmic pattern generators, and more. of notation, but to concentrate on. Assembling and using the ancient sigil is required to enter his area. orb-composer. Cerulean Orb from Sceneries and Forms A stunning ambient experimental album from Swedish composer Dag Rosenqvist, available as a limited-edition CD. (TV: Liberation. In ancient Dragonia existed five orbs that could be used to make dragons do one's bidding. The Orb virtually invented the electronic genre known as ambient house, resurrecting slower, more soulful rhythms and providing a soundtrack for early-morning ravers once the clubs closed their doors. This ambient pop. That’s why you need to know at least the basic rules of music composition in order to be able to use the ORB Composer properly. Learn about 335 historical figures, notable people and celebrities who died in 1971 like Louis Armstrong, Jim Morrison and Nikita Khrushchev. List of best Orb Composer alternatives & competitors in 2020. The magical orb from the City Square (no pun intended) was stolen and the main protagonist must get it back!. The Department Defence Orbs were used by the Department to guard detention facilities such as Dauntless Prison. Price: Pricing plans start at $149,00 Compatibility: macOS, Windows You can’t generate music automatically with ORB Composer, because the AI creates music based on your choices. com), the largest and best organized classical music site on the web. 1707 - Carl Hockh, composer 1709 - Joseph Reipel, composer 1727 - Claude-Benigne Balbastre, composer 1729 - Giuseppe Luigi Tibaldi, composer 1729 - Gotthold Ephraim Lessing, Germany, critic/dramatist Statesman/PhilosopherFrancis Bacon (1561) 1733 - Philip Carteret, British Naval Officer 1748 - Lewis Edson, composer 1753 - Peter Fuchs, composer. Montreal, Canada Area Screen Composer / Music Producer at James Ellercamp Music Toronto, ON. We’d been to his recital the night before, at the Salle Pleyel in Paris, but we’d been. 3 Thais' coup and Gyendal's ecaption 1. Your Next Binge Watch Awaits. Hexachords Orb Composer S Pro v1. Orb Producer Suite - 4 plugins made for #musicproducers. 5 demos, I get the impression that Orb Composer creates usable melodies and harmonies that meet or exceed what you can get from most other music software. 🎮💻 🅂🅄🅂🄲🅁í🄱🄴🅃🄴 🄰🅀🅄í https://bit. The adapter driver provides a corresponding MIDI miniport driver that binds to the MIDI port driver object to form a MIDI filter (see MIDI and DirectMusic Filters) that can capture or render a MIDI stream. Orb Composer is the first software with artificial intelligence designed for music composers. 2 Long Arm Slam 6. But, more on this later. EUPOL Software Infolinia: 801 007 179 Kategoria. The main task of artificial intelligence is to create drafts and demos of songs. Sep 7 Franz Wullner, composer, dies at 70; Sep 9 Titus AJ van Asch van Wijck, Governor of Suriname (1891-97), dies at 53; Sep 14 Reinhold Finsterbusch, German singer, organist, composer, and choral director (Jesu Tod und Begräbnis), dies at 76; Sep 19 Maria Hendrika, Queen of the Belgians, dies.